Скачать через торрент Оранжевый - хит сезонаOrange Is the New Black Фильм бесплатно в хорошем качестве torrent

Скачивайте на UnionPeer.org фильмы через торрент без регистрации. Новинки кино в хорошем качестве через торрент. На UnionPeer.org можно скачать через торрент фильмы 2014 и 2015 годов. Самые новые фильмы.

Скачать торрент Оранжевый - хит сезонаOrange Is the New Black бесплатно через .torrent фильм мультфильм сериал

Статистика раздачи
Размер:  7.01 GB   |    Зарегистрирован:  4 месяца 10 дней   |    .torrent скачан:  116 раз   |   
Раздают:  1  
   
загрузка...
 
Автор Сообщение

Galfimbul

avatar Galfimbul


Оранжевый - хит сезона / Orange Is the New Black

Год выпуска: 2018
Страна: США
Жанр: драма, комедия, криминал
Продолжительность: ~ 52 мин

Перевод: Профессиональный (двухголосый закадровый)[Gears Media]

Режиссёр: Майкл Трим, Эндрю МакКарти, Мэттью Пенн

В ролях: Тейлор Шиллинг (Piper Chapman), Майкл Харни (Sam Healy), Кейт Малгрю (Galina «Red» Reznikov), Наташа Лионн (Nicky Nichols), Узо Адуба (Suzanne «Crazy Eyes» Warren), Даниэль Брукс (Tasha «Taystee» Jefferson), Даша Поланко (Dayanara Diaz), Самира Уайли (Poussey Washington), Селенис Лейва (Gloria Mendoza), Ник Сэндоу (Joe Caputo), Яэль Стоун (Lorna Morello), Тэрин Мэннинг (Tiffany «Pennsatucky» Doggett)

Описание:
Пайпер Чепмен - обычная жительница Коннектикута. Она любит свою благополучную жизнь и все её приятные мелочи. Душ по утрам, красивый завтрак, занятия любовью. Но случается так, что благодаря своему мимолетному увлечению крупным наркоторговцем, Пайпер оказывается заключенной в тюрьму на долгие пятнадцать месяцев. Отныне ей необходимо не только привыкнуть к новому окружению, но и просто - выжить.

Ссылка на предыдущие и альтернативные раздачи: http://rutracker.org/forum/tracker.php?g=foreign_se...Is+the+New+Black

Сэмпл: http://multi-up.com/1205212

Качество: WEBRip
Формат: AVI
Видео: XviD, 720x400 at 23.976 fps, ~1500 kbps avg
Аудио1: Russian, MP3, 48 kHz, 2 ch, 128 kbps
Аудио2: English, MP3, 48 kHz, 2 ch, 128 kbps
Субтитры: нет
Реклама: аудио (два раза, в начале и конце, по 12 сек.)
Format : AVI
Format/Info : Audio Video Interleave
File size : 682 MiB
Duration : 54 min 49 s
Overall bit rate : 1 739 kb/s
Writing application : Lavf57.29.101

Video
ID : 0
Format : xvid
Codec ID : xvid
Duration : 54 min 49 s
Bit rate : 1 463 kb/s
Width : 720 pixels
Height : 400 pixels
Display aspect ratio : 16:9
Frame rate : 23.976 (24000/1001) FPS
Scan type : Progressive
Bits/(Pixel*Frame) : 0.212
Stream size : 574 MiB (84%)

Audio #1
ID : 1
Format : MPEG Audio
Format version : Version 1
Format profile : Layer 3
Format settings : Joint stereo / MS Stereo
Codec ID : 55
Codec ID/Hint : MP3
Duration : 54 min 49 s
Bit rate mode : Constant
Bit rate : 128 kb/s
Channel(s) : 2 channels
Sampling rate : 48.0 kHz
Compression mode : Lossy
Stream size : 50.2 MiB (7%)
Alignment : Aligned on interleaves
Interleave, duration : 24 ms (0.58 video frame)
Interleave, preload duratio : 24 ms
Title : Gears Media
Writing library : LAME3.99.5

Audio #2
ID : 2
Format : MPEG Audio
Format version : Version 1
Format profile : Layer 3
Format settings : Joint stereo / MS Stereo
Codec ID : 55
Codec ID/Hint : MP3
Duration : 54 min 49 s
Bit rate mode : Constant
Bit rate : 128 kb/s
Channel(s) : 2 channels
Sampling rate : 48.0 kHz
Compression mode : Lossy
Stream size : 50.2 MiB (7%)
Alignment : Aligned on interleaves
Interleave, duration : 24 ms (0.58 video frame)
Interleave, preload duratio : 24 ms
Writing library : LAMEЄ
Внимание! Раздача ведётся путём добавления новых серий; при каждом добавлении создётся новый торрент. Чтобы начать докачку новой серии, пользователям необходимо сделать следующее:
(1) остановить скачивание,
(2) удалить старый торрент у себя из клиента (старые серии удалять не надо),
(3) скачать новый торрент и запустить его у себя в клиенте вместо старого, при этом указать клиенту путь в старую папку куда и должно происходить скачивание новых серий.

Ваш клиент при этом должен произвести хеширование (проверку) старой папки (если не производит сам - помогите ему сделать это), и будет докачивать только те серии которых у вас ещё нет. Старые серии при этом не удаляются, а продолжают раздаваться!

Eсли вы уже удалили старые серии, то предотвратить повторную закачку старых серий можно, отжав галочку в соответсвующих местах при запуске нового торрента. По возможности, желательно не удалять старые серии как можно дольше чтобы релизёр не столько продолжал раздавать старые серии, а смог сконцентрироваться на новых.


Трекер:  [ 02-Авг-2018 09:48 ]

  

Скачать .torrent

Размер .torrent файла 36 KB


Размер: 7.01 GB
Хэш (hash) релиза: 330ee712719bda046c3ceed0911f03de56a0c5ec
Подписка на обновления:

Торренты, похожие на Оранжевый - хит сезонаOrange Is the New Black скачать торрент

Форум Название Автор Размер S L Добавлен
Зарубежные сериалы ·%· Оранжевый - хит сезона /Orange Is the New Black / Сезон: 6 / Серии: 1-10 из 13 (Майкл Трим, Эндрю МакКарти, Мэттью Пенн) [2018, США, драма, комедия, криминал, WEBRip 720p] DVO (Gears Media) + Original Galfimbul 3382050758731.5 GB 0 0 1533187101

08:18

2-Авг-18

Еще никто не оставлял запись к записи скачать торрент Оранжевый - хит сезонаOrange Is the New Black . Будь первым!

!Обратная связь
Essay Conclusion | Untouched XXX | 96 Minutes (2011)