Скачать через торрент Оранжевый - хит сезонаOrange Is the New Black Фильм бесплатно в хорошем качестве torrent

Скачивайте на UnionPeer.org фильмы через торрент без регистрации. Новинки кино в хорошем качестве через торрент. На UnionPeer.org можно скачать через торрент фильмы 2014 и 2015 годов. Самые новые фильмы.

Скачать торрент Оранжевый - хит сезонаOrange Is the New Black бесплатно через .torrent фильм мультфильм сериал

Статистика раздачи
Размер:  31.5 GB   |    Зарегистрирован:  4 месяца 16 дней   |    .torrent скачан:  81 раз   |   
Раздают:  1  
   
загрузка...
 
Автор Сообщение

Galfimbul

avatar Galfimbul


Оранжевый - хит сезона / Orange Is the New Black

Год выпуска: 2018
Страна: США
Жанр: драма, комедия, криминал
Продолжительность: ~ 52 мин

Перевод: Профессиональный (двухголосый закадровый)[Gears Media]

Режиссёр: Майкл Трим, Эндрю МакКарти, Мэттью Пенн

В ролях: Тейлор Шиллинг (Piper Chapman), Майкл Харни (Sam Healy), Кейт Малгрю (Galina «Red» Reznikov), Наташа Лионн (Nicky Nichols), Узо Адуба (Suzanne «Crazy Eyes» Warren), Даниэль Брукс (Tasha «Taystee» Jefferson), Даша Поланко (Dayanara Diaz), Самира Уайли (Poussey Washington), Селенис Лейва (Gloria Mendoza), Ник Сэндоу (Joe Caputo), Яэль Стоун (Lorna Morello), Тэрин Мэннинг (Tiffany «Pennsatucky» Doggett)

Описание:
Пайпер Чепмен - обычная жительница Коннектикута. Она любит свою благополучную жизнь и все её приятные мелочи. Душ по утрам, красивый завтрак, занятия любовью. Но случается так, что благодаря своему мимолетному увлечению крупным наркоторговцем, Пайпер оказывается заключенной в тюрьму на долгие пятнадцать месяцев. Отныне ей необходимо не только привыкнуть к новому окружению, но и просто - выжить.

Ссылка на предыдущие и альтернативные раздачи: http://rutracker.org/forum/tracker.php?g=foreign_se...Is+the+New+Black

Сэмпл: http://multi-up.com/1205211

Качество: WEBRip 720p
Формат: MKV
Видео: X264, 1280x720 at 23.976 fps, ~7000 kbps avg
Аудио1: Russian, AC3, 48 kHz, 2 ch, 384 kbps
Аудио2: English, EAC3, 48 kHz, 6 ch, 640 kbps
Субтитры: нет
Реклама: аудио (два раза, в начале и конце, по 12 сек.)
Format : Matroska
Format version : Version 4 / Version 2
File size : 3.13 GiB
Duration : 54 min 49 s
Overall bit rate : 8 168 kb/s
Encoded date : UTC 2018-08-02 04:32:08
Writing application : mkvmerge v25.0.0 ('Prog Noir') 64-bit
Writing library : libebml v1.3.6 + libmatroska v1.4.9

Video
ID : 1
Format : AVC
Format/Info : Advanced Video Codec
Format profile : High@L4.1
Format settings : CABAC / 9 Ref Frames
Format settings, CABAC : Yes
Format settings, ReFrames : 9 frames
Codec ID : V_MPEG4/ISO/AVC
Duration : 54 min 49 s
Bit rate : 7 142 kb/s
Width : 1 280 pixels
Height : 720 pixels
Display aspect ratio : 16:9
Frame rate mode : Constant
Frame rate : 23.976 (24000/1001) FPS
Color space : YUV
Chroma subsampling : 4:2:0
Bit depth : 8 bits
Scan type : Progressive
Bits/(Pixel*Frame) : 0.323
Stream size : 2.74 GiB (87%)
Writing library : x264 core 152 r2851kMod ba24899
Encoding settings : cabac=1 / ref=9 / deblock=1:-3:-3 / analyse=0x3:0x133 / me=umh / subme=10 / psy=1 / fade_compensate=0.00 / psy_rd=1.00:0.00 / mixed_ref=1 / me_range=48 / chroma_me=1 / trellis=2 / 8x8dct=1 / cqm=0 / deadzone=21,11 / fast_pskip=0 / chroma_qp_offset=-2 / threads=12 / lookahead_threads=2 / sliced_threads=0 / nr=0 / decimate=0 / interlaced=0 / bluray_compat=0 / constrained_intra=0 / bframes=8 / b_pyramid=2 / b_adapt=2 / b_bias=0 / direct=3 / weightb=1 / open_gop=0 / weightp=2 / keyint=250 / keyint_min=23 / scenecut=40 / intra_refresh=0 / rc=crf / mbtree=0 / crf=17.0000 / qcomp=0.60 / qpmin=0 / qpmax=69 / qpstep=4 / ip_ratio=1.30 / pb_ratio=1.20 / aq=3:0.80
Language : English
Default : Yes
Forced : No

Audio #1
ID : 2
Format : AC-3
Format/Info : Audio Coding 3
Codec ID : A_AC3
Duration : 54 min 49 s
Bit rate mode : Constant
Bit rate : 384 kb/s
Channel(s) : 2 channels
Channel positions : Front: L R
Sampling rate : 48.0 kHz
Frame rate : 31.250 FPS (1536 SPF)
Bit depth : 16 bits
Compression mode : Lossy
Stream size : 151 MiB (5%)
Title : Gears Media
Language : Russian
Service kind : Complete Main
Default : Yes
Forced : Yes

Audio #2
ID : 3
Format : E-AC-3
Format/Info : Enhanced Audio Coding 3
Codec ID : A_EAC3
Duration : 54 min 49 s
Bit rate mode : Constant
Bit rate : 640 kb/s
Channel(s) : 6 channels
Channel positions : Front: L C R, Side: L R, LFE
Sampling rate : 48.0 kHz
Frame rate : 187.500 FPS (256 SPF)
Compression mode : Lossy
Stream size : 251 MiB (8%)
Language : English
Service kind : Complete Main
Default : No
Forced : No
Внимание! Раздача ведётся путём добавления новых серий; при каждом добавлении создётся новый торрент. Чтобы начать докачку новой серии, пользователям необходимо сделать следующее:
(1) остановить скачивание,
(2) удалить старый торрент у себя из клиента (старые серии удалять не надо),
(3) скачать новый торрент и запустить его у себя в клиенте вместо старого, при этом указать клиенту путь в старую папку куда и должно происходить скачивание новых серий.

Ваш клиент при этом должен произвести хеширование (проверку) старой папки (если не производит сам - помогите ему сделать это), и будет докачивать только те серии которых у вас ещё нет. Старые серии при этом не удаляются, а продолжают раздаваться!

Eсли вы уже удалили старые серии, то предотвратить повторную закачку старых серий можно, отжав галочку в соответсвующих местах при запуске нового торрента. По возможности, желательно не удалять старые серии как можно дольше чтобы релизёр не столько продолжал раздавать старые серии, а смог сконцентрироваться на новых.


Трекер:  [ 02-Авг-2018 08:18 ]

  

Скачать .torrent

Размер .torrent файла 159 KB


Размер: 31.5 GB
Хэш (hash) релиза: 8cd7576774273638d17ff6e23adc3b83e4b68893
Подписка на обновления:

Торренты, похожие на Оранжевый - хит сезонаOrange Is the New Black скачать торрент

Форум Название Автор Размер S L Добавлен
Зарубежные сериалы ·%· Оранжевый - хит сезона /Orange Is the New Black / Сезон: 6 / Серии: 1-10 из 13 (Майкл Трим, Эндрю МакКарти, Мэттью Пенн) [2018, США, драма, комедия, криминал, WEBRip] DVO (Gears Media) + Original Galfimbul 75296290307.01 GB 0 0 1533192488

09:48

2-Авг-18

Еще никто не оставлял запись к записи скачать торрент Оранжевый - хит сезонаOrange Is the New Black . Будь первым!

!Обратная связь
Peppermint FRENCH DVDRIP 2018 | Chuukan Kanriroku Tonegawa - Episode 23 | IAHCSMM Workbook Chapters 17-20